» » Robbie Dupree - Street Corner Heroes
nescosrl
full-dateMP3 1902 mb. | FLAC 2287 mb. | WMA: 1760 mb.
Rock / Pop

Robbie Dupree - Street Corner Heroes Scaricare Gratis

Robbie Dupree - Street Corner Heroes Scaricare Gratis

Interprete: Robbie Dupree
Titolo: Street Corner Heroes
Paese: Japan
Numero di catalogo: WPCP-3448
Etichetta: Elektra
Rilasciato: 25 Apr 1990
Stile: AOR, Pop Rock
Valutazione: 4.6
Voti: 410

Tracklist

1Desperation
2Free Fallin'
3I'll Be The Fool Again
4Street Corner Heroes
5Long Goodbye
6Saturday Night
7Missing You
8Brooklyn Girls
9Are You Ready For Love
10All Night Long

Versioni

CategoryArtistTitle (Format)LabelCategoryCountryYear
6E 344Robbie Dupree Street Corner Heroes ‎(LP, Album)Elektra6E 344US1981
C 90 477Robbie Dupree Street Corner Heroes ‎(Cass, Album)Elektra, HispavoxC 90 477Spain1981
6E-344Robbie Dupree Street Corner Heroes ‎(LP, Album, Promo)Elektra6E-344US1981
S 90.477Robbie Dupree Street Corner Heroes ‎(LP, Album)Hispavox, S.A.S 90.477Spain1981
WOU 344Robbie Dupree Street Corner Heroes ‎(CD, Album)Wounded Bird RecordsWOU 344US2002

Crediti

  • ProducerPeter Bunetta, Rick Chudacoff

Notes

℗ © 1981 Elektra Entertainment
℗ 1981 WEA International Inc.
Made by Warner-Pioneer Corporation, Japan

Codici a barre

  • Barcode: 4988014734486
  • Rights Society: JASRAC
  • Other (Price): ¥1,875

Aziende

  • Made By – Warner-Pioneer Corporation
  • Phonographic Copyright (p) – WEA International Inc.
  • Phonographic Copyright (p) – Elektra Entertainment
  • Copyright (c) – Elektra Entertainment

Video

Album

Street Corner Heroes - Robbie Dupree. Лента с персональными рекомендациями и музыкальными новинками, радио, подборки на любой вкус, удобное управление своей. Hi-Five: Robbie Dupree - EP. Time and Tide. Carried Away. Robbie Dupree With David Sancious. Robbie Dupree - Street Corner Heroes 1981. To favorites 0 Download album. Listen album. AOR Soft Rock. Robbie Dupree. Songs in album Robbie Dupree - Street Corner Heroes 1981. Robbie Dupree - Street Corner Heroes Remastered. Robbie Dupree - Desperation Remastered. Robbie Dupree - Brooklyn Girls Remastered. Robbie Dupree - All Night Long Remastered. Robbie Dupree - Free Fallin' Remastered. Robbie Dupree - I'll Be The Fool Again Remastered. Artist: Robbie Dupree Album: Street Corner Heroes Genre: PopWestcoast Year: 1982 -uploaded in HD at http. Street Corner Heroes. WMG, The Orchard Music от лица компании Blixa Sounds ARESA, BMG Rights Management US. Play jigsaw puzzles for free Home. Street Corner Heroes, 1981. Street Corner Heroes, 03:24. Desperation, 03:50. Brooklyn Girls, 03:25. All Night Long, 01:50. Free Fallin', 05:00. I'll Be the Fool Again, 02:58. Are You Ready for Love, 03:32. Покупка Robbie Dupree - Street Corner Heroes - Elektra - LP, Album - P-11017E, включает Street Corner Heroes, Desperation, Brooklyn Girls, All Night Long, Free Fallin', I'll Be The Fool Again, Are You Ready For Corner Heroes. Dupree, Robbie Artist Format: Audio CD. Please retry. Our previous Robbie Dupree CD has done surprisingly well. Fans keep screaming for his second album, so here it is, for the first time on CD anywhere. It features, get this, Joe Lala It reached 169 on the Billboard charts in 1981. Track Listings. Disc: 1. Brooklyn Girls. Street Corner Heroes 1981. Album by Robbie Dupree. Are You Ready for Love was covered online to Robbie Dupree - Street Corner Heroes and see which albums it appears on. Scrobble songs and get recommendations on other tracks and artists

Recensioni (1)
Vudogal
foobar2000 1.3.17 / Dynamic Range Meter 1.1.1
log date: 2018-10-17 19:38:22

--------------------------------------------------------------------------------
Analyzed: Robbie Dupree / Street Corner Heroes [JP 1990 CD]
--------------------------------------------------------------------------------

DR Peak RMS Duration Track
--------------------------------------------------------------------------------
DR13 -1.24 dB -15.84 dB 3:28 01-Street Corner Heroes
DR13 -1.53 dB -18.02 dB 3:54 02-Desperation
DR12 -1.40 dB -17.31 dB 3:26 03-Brooklyn Girls
DR12 -3.46 dB -18.23 dB 1:49 04-All Night Long
DR13 -3.08 dB -19.98 dB 5:01 05-Free Fallin'
DR13 -0.83 dB -16.57 dB 2:57 06-I`ll Be The Fool Again
DR15 0.00 dB -17.57 dB 3:30 07-Are You Ready For Love
DR14 -0.02 dB -17.42 dB 4:00 08-Saturday Night
DR14 -0.67 dB -17.91 dB 3:04 09-Missin' You
DR14 -1.00 dB -20.77 dB 2:58 10-Long Goodbye
--------------------------------------------------------------------------------

Number of tracks: 10
Official DR value: DR13

Samplerate: 44100 Hz
Channels: 2
Bits per sample: 16
Bitrate: 803 kbps
Codec: ALAC
================================================================================

2016-2021 © nescosrl.it
Tutti i diritti riservati.